San Andreas 2015 2160p ULTRAHD 4K Blu-ray x265 DTSHD TrueHD Fr 7.1 Hindi 5.1 [ENG]

Producer: Brad Peyton
Cast:Dwayne Johnson, Carla Gugino, Alexandra Daddario, Ioan Gruffudd, Archie Panjabi, Paul Giamatti, Hugo Johnstone-Burt, Art Parkinson, Will Yun Lee, Kylie Minogue, Colton Haynes, Todd Williams, Matt Gerald, Alec Utgoff, Marissa Neitling...
IMDB 6.10
File Size 28.3 GB
Film description
Ray is a pilot of a rescue helicopter, who has helped his whole life with other people. For all the time, he has seen enough of scary things and more than once found himself in very difficult situations. Despite all the obstacles, he hurried to the rescue, without even assuming that the most terrible thing awaits him ahead. Views 4k blu ray movies list on our site.

A powerful earthquake hits California, killing hundreds of people and creating a huge crack in the earth. In the general chaos Ray has to find his daughter, but it will be very difficult. In the hope that his child is still alive, he goes on a deadly journey across the state ...
Source : 4K Blu-ray ripped with HDFury @woodsmerefarm.com
Video
Format : HEVC
Format/Info : High Efficiency Video Coding
Format profile : Main@L5@Main
Codec ID : V_MPEGH/ISO/HEVC
Duration : 1h 54mn
Bit rate : 24.8 Mbps
Width : 3 840 pixels
Height : 1 598 pixels
Display aspect ratio : 2.40:1
Frame rate mode : Constant
Frame rate : 23.976 (24000/1001) fps
Color space : YUV
Chroma subsampling : 4:2:0
Bit depth : 8 bits
Bits/(Pixel*Frame) : 0.169
Stream size : 19.8 GiB (70%)
Language : English
Default : Yes
Forced : No
Color range : Limited
Color primaries : BT.709
Transfer characteristics : BT.709
Matrix coefficients : BT.709

Audio
Audio #1
Format : AC-3
Format/Info : Audio Coding 3
Mode extension : CM (complete main)
Format settings, Endianness : Big
Codec ID : A_AC3
Duration : 1h 54mn
Bit rate mode : Constant
Bit rate : 384 Kbps
Channel(s) : 6 channels
Channel positions : Front: L C R, Side: L R, LFE
Sampling rate : 48.0 KHz
Frame rate : 31.250 fps (1536 spf)
Compression mode : Lossy
Delay relative to video : -75ms
Stream size : 314 MiB (1%)
Title : VFF AC-3 @ 384 kbps 5.1
Language : French
Default : Yes
Forced : No

Audio #2
ID : 3
Format : DTS
Format/Info : Digital Theater Systems
Format profile : MA / Core
Mode : 16
Format settings, Endianness : Big
Codec ID : A_DTS
Duration : 1h 54mn
Bit rate mode : Variable / Constant
Bit rate : 4 431 Kbps / 1 509 Kbps
Channel(s) : 8 channels / 6 channels
Channel positions : Front: L C R, Side: L R, Back: L R, LFE / Front: L C R, Side: L R, LFE
Sampling rate : 48.0 KHz
Frame rate : 93.750 fps (512 spf)
Bit depth : 24 bits
Compression mode : Lossless / Lossy
Delay relative to video : -79ms
Stream size : 3.54 GiB (13%)
Title : DTS-HDMA 7.1 English
Language : English
Default : No
Forced : No

Audio #3
ID : 4
Format : Atmos / TrueHD
Codec ID : A_TRUEHD
Duration : 1h 54mn
Bit rate mode : Variable
Bit rate : 5 253 Kbps
Maximum bit rate : 8 682 Kbps
Channel(s) : Object Based / 8 channels
Channel positions : Object Based / Front: L C R, Side: L R, Back: L R, LFE
Sampling rate : / 48.0 KHz
Frame rate : 1 200.000 fps (40 spf)
Compression mode : Lossless
Delay relative to video : -83ms
Stream size : 4.20 GiB (15%)
Title : VFF TrueHD ATMOS 7.1
Language : French
Default : No
Forced : No

Audio #4
ID : 5
Format : AC-3
Format/Info : Audio Coding 3
Mode extension : CM (complete main)
Format settings, Endianness : Big
Codec ID : A_AC3
Duration : 1h 54mn
Bit rate mode : Constant
Bit rate : 448 Kbps
Channel(s) : 6 channels
Channel positions : Front: L C R, Side: L R, LFE
Sampling rate : 48.0 KHz
Frame rate : 31.250 fps (1536 spf)
Compression mode : Lossy
Delay relative to video : -79ms
Stream size : 367 MiB (1%)
Language : Hindi
Default : No
Forced : No

Text #1
ID : 6
Format : UTF-8
Codec ID : S_TEXT/UTF8
Codec ID/Info : UTF-8 Plain Text
Duration : 1h 53mn
Bit rate : 0 bps
Count of elements : 10
Stream size : 326 Bytes (0%)
Title : Sous-titres Francais forcé
Language : French
Default : Yes
Forced : No

Text #2
ID : 7
Format : VobSub
Muxing mode : zlib
Codec ID : S_VOBSUB
Codec ID/Info : Picture based subtitle format used on DVDs
Duration : 1h 52mn
Bit rate : 5 047 bps
Count of elements : 1487
Stream size : 4.07 MiB (0%)
Title : English Sub
Language : English
Default : No
Forced : No

Screenshots of the movie:









File size: 28.3 GB


download 4k movies

Watch the movie trailer San Andreas 2015 2160p ULTRAHD 4K Blu-ray x265 DTSHD TrueHD Fr 7.1 Hindi 5.1 [ENG]
Watch the movie trailer
Comments
  • bowtiesmilelaughingblushsmileyrelaxedsmirk
    heart_eyeskissing_heartkissing_closed_eyesflushedrelievedsatisfiedgrin
    winkstuck_out_tongue_winking_eyestuck_out_tongue_closed_eyesgrinningkissingstuck_out_tonguesleeping
    worriedfrowninganguishedopen_mouthgrimacingconfusedhushed
    expressionlessunamusedsweat_smilesweatdisappointed_relievedwearypensive
    disappointedconfoundedfearfulcold_sweatperseverecrysob
    joyastonishedscreamtired_faceangryragetriumph
    sleepyyummasksunglassesdizzy_faceimpsmiling_imp
    neutral_faceno_mouthinnocent